<svg xmlns="http://www.w3.org/2000/svg">
<defs>
<font
       id="FontID0"
       horiz-adv-x="667"
       font-variant="normal"
       style="fill-rule:nonzero"
       font-style="normal"
       font-weight="400"
       horiz-origin-x="0"
       horiz-origin-y="0"
       vert-origin-x="512"
       vert-origin-y="768"
       vert-adv-y="1024">
	<font-face
   font-family="Arial"
   id="font-face7">
	</font-face>
   <missing-glyph
   id="missing-glyph9"><path
     d="M0 0z"
     id="path11-3" /></missing-glyph>
   <glyph
   unicode="E"
   horiz-adv-x="667"
   id="glyph13"><path
     d="M79.1651 0l0 715.831 517.504 0 0 -84.4972 -422.834 0 0 -219.169 396 0 0 -83.9988 -396 0 0 -243.668 439.497 0 0 -84.4972 -534.166 0z"
     id="path15" /></glyph>
   <glyph
   unicode="A"
   horiz-adv-x="667"
   id="glyph17"><path
     d="M-1.49999 0l274.995 715.828 102 0 293.007 -715.828 -108 0 -83.5036 216.838 -299.326 0 -78.5076 -216.838 -100.665 0zm206.503 293.999l242.834 0 -74.8344 198.165c-22.6653,60.1651 -39.6731,109.665 -50.6691,148.499 -9.16532,-45.9919 -22.0039,-91.4996 -38.6691,-136.83l-78.6611 -209.834z"
     id="path19-8" /></glyph>
   <glyph
   unicode="I"
   horiz-adv-x="277"
   id="glyph21"><path
     d="M93.3303 0l0 715.828 94.665 0 0 -715.828 -94.665 0z"
     id="path23-5" /></glyph>
   <glyph
   unicode="M"
   horiz-adv-x="833"
   id="glyph25"><path
     d="M74.1611 0l0 715.828 142.677 0 169.334 -506.833c15.6614,-47.1612 27.1652,-82.4997 34.1573,-105.992 8.1732,25.996 20.8346,64.3344 38.1731,114.826l171.33 497.998 127.499 0 0 -715.828 -91.3343 0 0 599.171 -208.003 -599.171 -85.4997 0 -206.999 609.328 0 -609.328 -91.3343 0z"
     id="path27-94" /></glyph>
   <glyph
   unicode="R"
   horiz-adv-x="722"
   id="glyph29"><path
     d="M78.6611 0l0 715.828 317.337 0c63.8383,0 112.334,-6.49604 145.499,-19.3228 33.1652,-12.8385 59.6691,-35.5038 79.665,-68.0076 19.8424,-32.6692 29.6692,-68.669 29.6692,-108 0,-50.8344 -16.3346,-93.4957 -49.3345,-128.326 -32.8345,-34.8424 -83.669,-56.9998 -152.326,-66.5076 25.1574,-12 44.1612,-23.8346 57.1651,-35.6692 27.6613,-25.3227 53.8344,-57.1651 78.6611,-95.161l124.5 -194.834 -119.161 0 -94.665 148.995c-27.6731,42.8384 -50.5037,75.8383 -68.5037,98.5035 -17.8346,22.8306 -33.8384,38.8345 -47.9998,47.8345 -14.1732,9.16532 -28.4999,15.496 -43.1691,19.1692 -10.8307,2.16141 -28.3345,3.3307 -52.8305,3.3307l-109.83 0 0 -317.833 -94.6768 0zm94.6768 399.837l203.657 0c43.1691,0 77.1729,4.49998 101.504,13.4999 24.5078,8.99996 43.0038,23.3267 55.6651,42.992 12.6732,19.6653 19.0039,41.0077 19.0039,64.169 0,33.8384 -12.1653,61.6651 -36.8384,83.5036 -24.496,21.8267 -63.3305,32.6692 -116.492,32.6692l-226.499 0 0 -236.834z"
     id="path31-1" /></glyph>
   <glyph
   unicode="S"
   horiz-adv-x="667"
   id="glyph33"><path
     d="M44.9998 229.995l89.3382 7.84249c4.15746,-35.8345 13.996,-65.173 29.492,-88.1689 15.5078,-23.0078 39.5077,-41.5038 71.9997,-55.6651 32.5038,-14.1732 69.1651,-21.1653 109.842,-21.1653 36.1652,0 67.9958,5.32675 95.6571,15.9921 27.6731,10.8307 48.3423,25.4999 61.8423,44.1731 13.4999,18.8267 20.3267,39.1652 20.3267,61.3344 0,22.4999 -6.49604,41.9998 -19.6653,58.8305 -13.0039,16.8306 -34.4999,30.8267 -64.3344,42.1652 -19.3346,7.49997 -61.6651,19.1692 -127.499,34.9959 -65.669,15.8385 -111.826,30.6731 -138.165,44.6691 -34.1692,17.8346 -59.6691,40.1691 -76.4997,66.673 -16.6653,26.492 -25.0038,56.1612 -25.0038,89.1611 0,35.9999 10.1693,69.8383 30.6731,101.173 20.492,31.4999 50.4919,55.3226 89.8343,71.6572 39.4959,16.1692 83.1611,24.3424 131.326,24.3424 53.173,0 99.8382,-8.5039 140.503,-25.6771 40.4998,-16.996 71.669,-42.1652 93.4957,-75.3304 21.6731,-33.1652 33.5077,-70.8304 35.1731,-112.83l-90.8382 -6.83856c-4.99604,45.177 -21.496,79.4997 -49.6652,102.507 -28.1692,23.1613 -69.6611,34.6652 -124.665,34.6652 -57.3305,0 -98.9996,-10.5 -125.338,-31.4999 -26.1613,-20.9999 -39.3306,-46.3345 -39.3306,-75.8383 0,-25.8306 9.33067,-46.9959 27.8385,-63.4958 18.3306,-16.6653 65.8344,-33.6731 142.83,-50.9998 76.9958,-17.5039 129.826,-32.6692 158.503,-45.673 41.6573,-19.3228 72.4958,-43.6652 92.3264,-72.9918 19.8306,-29.5038 29.6692,-63.5076 29.6692,-101.834 0,-38.1731 -10.8307,-74.0076 -32.6692,-107.669 -21.8267,-33.6613 -53.1612,-59.8344 -94.0036,-78.6611 -40.8305,-18.6732 -86.8225,-28.0038 -137.822,-28.0038 -64.8423,0 -119.173,9.33067 -162.838,28.3345 -43.8305,18.8267 -78.165,47.1612 -103.169,85.169 -24.8267,37.8306 -37.9959,80.8343 -39.1652,128.657z"
     id="path35-1" /></glyph>
   <glyph
   unicode="f"
   horiz-adv-x="277"
   id="glyph37"><path
     d="M86.833 0l0 450.168 -77.5018 0 0 68.3328 77.5018 0 0 55.1646c0,34.8329 3.16444,60.833 9.3312,77.67 8.50256,22.8296 23.334,41.3299 44.6685,55.5008 21.3345,14.1649 51.1655,21.1663 89.6672,21.1663 24.667,0 52.0001,-2.83419 81.9993,-8.83282l-13.1682 -76.6672c-18.164,3.33257 -35.4994,4.99586 -51.832,4.99586 -26.6666,0 -45.4971,-5.66237 -56.4976,-17.1673 -11.1686,-11.3307 -16.6689,-32.6652 -16.6689,-63.9974l0 -47.8329 100.998 0 0 -68.3328 -100.998 0 0 -450.168 -87.4995 0z"
     id="path39-83" /></glyph>
   <glyph
   unicode="g"
   horiz-adv-x="556"
   id="glyph41"><path
     d="M49.8305 -43.0038l85.4997 -12.6614c3.50786,-26.3385 13.4999,-45.4959 29.6692,-57.673 21.8385,-16.1574 51.673,-24.3306 89.3382,-24.3306 40.8305,0 72.1651,8.1732 94.3343,24.3306 22.1574,16.3346 36.992,39.177 44.8227,68.3383 4.67715,17.9999 6.6732,55.4998 6.34249,112.83 -38.3384,-45.1652 -86.1729,-67.8304 -143.503,-67.8304 -71.3383,0 -126.496,25.6653 -165.495,77.1611 -38.9998,51.3423 -58.6769,113.173 -58.6769,185.007 0,49.4998 8.99996,95.161 26.8345,136.996 17.9999,41.8345 44.0077,74.1729 77.9997,97.0036 34.0038,22.6653 74.0076,34.1692 119.834,34.1692 61.1691,0 111.673,-24.8385 151.334,-74.3383l0 62.5037 81.165 0 0 -448.168c0,-80.669 -8.32674,-137.999 -24.6613,-171.673 -16.4999,-33.6613 -42.4959,-60.3305 -78.165,-79.8304 -35.6692,-19.4999 -79.4997,-29.3267 -131.669,-29.3267 -61.8305,0 -111.838,13.996 -149.834,41.8227 -38.1613,27.8385 -56.5037,69.673 -55.1691,125.669zm72.6729 311.503c0,-67.9958 13.4999,-117.661 40.6652,-148.83 26.9999,-31.3345 60.8265,-46.8305 101.504,-46.8305 40.3227,0 74.1611,15.496 101.492,46.4998 27.3306,31.1574 41.0077,79.8304 41.0077,146.326 0,63.5076 -14.0078,111.33 -42.177,143.503 -28.1574,32.1613 -62.1612,48.3305 -101.822,48.3305 -38.9998,0 -72.1769,-15.8267 -99.6728,-47.6691 -27.3306,-31.6652 -40.9959,-78.8265 -40.9959,-141.33z"
     id="path43-2" /></glyph>
   <glyph
   unicode="d"
   horiz-adv-x="556"
   id="glyph45"><path
     d="M402.329 0l0 65.5037c-32.8345,-51.5077 -81.165,-77.1729 -144.992,-77.1729 -41.3384,0 -79.3343,11.3385 -114,34.1692 -34.677,22.6653 -61.4998,54.4958 -80.669,95.5036 -19.0039,40.8305 -28.4999,87.6611 -28.4999,140.834 0,51.6612 8.66926,98.6571 25.8306,140.834 17.3385,42.1652 43.1691,74.4918 77.669,96.8264 34.4999,22.4999 73.169,33.8384 115.83,33.8384 31.1692,0 58.9958,-6.6732 83.3383,-19.8306 24.496,-13.1692 44.3266,-30.3424 59.6572,-51.5077l0 256.83 87.3422 0 0 -715.828 -81.5076 0zm-277.83 258.838c0,-66.5076 13.996,-116.173 41.9998,-149.007 28.0038,-32.8345 61.0037,-49.3345 99.165,-49.3345 38.3384,0 71.0076,15.8385 97.8303,47.173 26.8345,31.3345 40.3345,79.3343 40.3345,143.834 0,70.9958 -13.6653,123 -40.9959,156.165 -27.3306,33.3306 -61.0037,49.8305 -101.161,49.8305 -38.9998,0 -71.669,-16.0039 -97.8421,-47.8345 -26.1613,-31.8306 -39.3306,-82.169 -39.3306,-150.826z"
     id="path47-9" /></glyph>
   <glyph
   unicode="b"
   horiz-adv-x="556"
   id="glyph49"><path
     d="M146.999 0l-81.4957 0 0 715.828 87.8264 0 0 -255.33c37.1691,46.4998 84.5075,69.8383 142.003,69.8383 31.9959,0 62.1612,-6.50785 90.6611,-19.3346 28.4999,-12.8385 51.8384,-31.0038 70.3344,-54.1651 18.3424,-23.3385 32.8345,-51.3423 43.1691,-84.3422 10.5,-32.8227 15.6732,-67.9958 15.6732,-105.33 0,-88.9957 -22.0039,-157.665 -65.9997,-206.161 -43.8423,-48.5077 -96.6728,-72.6729 -158.173,-72.6729 -61.1691,0 -109.169,25.4999 -143.999,76.6651l0 -64.9958zm-1.00393 263.172c0,-62.173 8.5039,-107.007 25.3345,-134.669 27.6731,-45.3423 65.173,-68.0076 112.334,-68.0076 38.5038,0 71.669,16.6653 99.6728,50.173 27.992,33.3306 41.9998,82.9957 41.9998,149.161 0,67.6651 -13.4999,117.673 -40.3345,149.834 -26.8345,32.1731 -59.3383,48.3305 -97.3343,48.3305 -38.5038,0 -71.669,-16.6653 -99.6728,-49.9959 -27.992,-33.3306 -41.9998,-81.6611 -41.9998,-144.826z"
     id="path51-7" /></glyph>
   <glyph
   unicode="m"
   horiz-adv-x="833"
   id="glyph53"><path
     d="M65.9997 0l0 518.502 78.4958 0 0 -72.6729c16.3346,25.3345 38.0077,45.8384 65.0076,61.1691 26.9999,15.5078 57.8265,23.3385 92.3264,23.3385 38.3384,0 69.8383,-8.00784 94.3343,-23.9999 24.6731,-16.0039 41.9998,-38.1731 52.0037,-66.8383 41.1613,60.5076 94.4996,90.8382 160.169,90.8382 51.4959,0 90.9918,-14.3385 118.665,-42.8384 27.6613,-28.4999 41.5038,-72.3304 41.5038,-131.503l0 -355.995 -87.3422 0 0 326.668c0,35.1613 -2.83463,60.4958 -8.49209,76.0036 -5.83462,15.3306 -16.1692,27.8267 -31.0038,37.3227 -14.9999,9.34248 -32.6692,14.1732 -52.8305,14.1732 -36.5077,0 -66.673,-12.1653 -90.8382,-36.4959 -23.9999,-24.1771 -36.1652,-62.9998 -36.1652,-116.338l0 -301.333 -87.8382 0 0 336.837c0,39.1652 -7.15745,68.4919 -21.496,87.9918 -14.3267,19.4999 -37.6652,29.3385 -70.3344,29.3385 -24.6613,0 -47.4919,-6.49604 -68.4919,-19.6653 -20.9999,-13.0039 -36.3424,-32.0077 -45.673,-56.9998 -9.49603,-25.1692 -14.1614,-61.3344 -14.1614,-108.507l0 -268.995 -87.8382 0z"
     id="path55-54" /></glyph>
   <glyph
   unicode="a"
   horiz-adv-x="556"
   id="glyph57"><path
     d="M404.337 64.0037c-32.6692,-27.6731 -64.0037,-47.173 -94.0036,-58.6651 -30.1652,-11.3385 -62.5037,-17.0078 -97.0036,-17.0078 -56.9998,0 -100.665,13.8307 -131.326,41.6691 -30.5078,27.8385 -45.8384,63.4958 -45.8384,106.665 0,25.4999 5.66927,48.673 17.3385,69.673 11.4921,20.9999 26.6574,37.8306 45.3305,50.4919 18.8267,12.6732 39.8266,22.3346 63.3305,28.8424 17.1732,4.49998 43.1691,8.99996 77.9997,13.1574 71.0076,8.5039 123.33,18.5078 156.838,30.3424 0.330707,12 0.496061,19.6653 0.496061,22.8306 0,35.8345 -8.32674,61.1691 -25.0038,75.6611 -22.3227,20.0078 -55.8305,29.8345 -99.9917,29.8345 -41.3384,0 -71.8344,-7.16926 -91.665,-21.6613 -19.6771,-14.5039 -34.1692,-40.1691 -43.677,-77.0076l-85.8304 11.8346c7.83068,36.6731 20.6692,66.5076 38.5038,89.0075 17.8346,22.6653 43.8305,40.1573 77.669,52.3344 33.8266,12.1653 72.9918,18.3306 117.661,18.3306 44.3384,0 80.1729,-5.33856 107.834,-15.6732 27.6731,-10.5 47.9998,-23.492 61.1691,-39.3306 13.0039,-15.8385 22.0039,-35.6692 27.3306,-59.8344 2.83463,-14.9999 4.33463,-41.9998 4.33463,-80.9997l0 -117.165c0,-81.8383 1.8307,-133.499 5.66927,-154.995 3.6614,-21.6731 11.1614,-42.5077 22.1692,-62.3383l-91.8422 0c-8.99996,18.1653 -14.9999,39.4959 -17.4921,64.0037zm-7.33462 196.334c-32.0077,-13.1692 -79.8304,-24.1653 -143.503,-33.3424 -36.1652,-5.1614 -61.8305,-10.996 -76.6651,-17.4921 -14.9999,-6.50785 -26.6692,-16.0039 -34.6652,-28.6652 -8.1732,-12.5078 -12.3307,-26.3385 -12.3307,-41.6691 0,-23.5038 8.99996,-43.0038 26.6574,-58.6651 17.6692,-15.5078 43.677,-23.3385 77.8343,-23.3385 33.8384,0 64.0037,7.33462 90.3422,22.1692 26.3267,14.8346 45.8266,35.1613 58.1573,60.8265 9.50784,19.8424 14.1732,49.1691 14.1732,87.8382l0 32.3385z"
     id="path59-4" /></glyph>
   <glyph
   unicode="n"
   horiz-adv-x="556"
   id="glyph61"><path
     d="M65.9997 0l0 518.502 79.0036 0 0 -73.6651c38.1613,56.9998 93.165,85.4997 164.999,85.4997 31.3345,0 59.9998,-5.66927 86.1611,-16.8306 26.3385,-11.3385 45.8384,-26.0078 58.8305,-44.3384 13.1692,-18.1653 22.1692,-39.8384 27.5078,-64.8305 3.16534,-16.3346 4.83069,-44.8345 4.83069,-85.4997l0 -318.837 -88.0036 0 0 315.495c0,35.6692 -3.3307,62.5037 -10.1574,80.3383 -6.83856,17.6692 -19.0039,31.8306 -36.3424,42.3305 -17.4921,10.6653 -37.8306,16.0039 -61.3344,16.0039 -37.4999,0 -69.6611,-12 -96.9917,-35.6692 -27.1652,-23.8346 -40.6652,-68.8344 -40.6652,-135.33l0 -283.168 -87.8382 0z"
     id="path63-0" /></glyph>
   <glyph
   unicode="o"
   horiz-adv-x="556"
   id="glyph65"><path
     d="M33.1652 259.334c0,95.9996 26.6692,167.161 80.1729,213.33 44.492,38.3384 98.8343,57.673 162.991,57.673 71.3383,0 129.673,-23.3385 174.838,-70.169 45.3305,-46.6652 67.8304,-111.165 67.8304,-193.499 0,-66.8383 -9.99209,-119.338 -29.9999,-157.499 -19.996,-38.3384 -49.1691,-68.0076 -87.3304,-89.1729 -38.3384,-21.1653 -79.9957,-31.6652 -125.338,-31.6652 -72.4958,0 -131.161,23.1731 -175.995,69.8383 -44.8345,46.4998 -67.169,113.503 -67.169,201.165zm90.3304 0c0,-66.4958 14.5039,-116.173 43.4998,-149.173 29.0078,-33.1652 65.5037,-49.6652 109.334,-49.6652 43.6652,0 80.0076,16.6653 109.004,49.8423 28.8306,33.1652 43.3345,83.8343 43.3345,151.83 0,64.169 -14.5039,112.83 -43.6652,145.83 -29.1731,32.9999 -65.3383,49.4998 -108.673,49.4998 -43.8305,0 -80.3265,-16.4999 -109.334,-49.3345 -28.9959,-32.8345 -43.4998,-82.4997 -43.4998,-148.83z"
     id="path67" /></glyph>
   <glyph
   unicode="i"
   horiz-adv-x="222"
   id="glyph69"><path
     d="M66.3304 614.667l0 101.161 88.0036 0 0 -101.161 -88.0036 0zm0 -614.667l0 518.502 88.0036 0 0 -518.502 -88.0036 0z"
     id="path71-0" /></glyph>
   <glyph
   unicode="k"
   horiz-adv-x="500"
   id="glyph73"><path
     d="M66.3304 0l0 715.828 88.0036 0 0 -408.164 208.003 210.838 113.657 0 -198.165 -192.33 218.338 -326.172 -108.496 0 -171.342 265.168 -61.9958 -59.6691 0 -205.499 -88.0036 0z"
     id="path75-1" /></glyph>
   <glyph
   unicode="l"
   horiz-adv-x="222"
   id="glyph77"><path
     d="M64.0037 0l0 715.828 87.8264 0 0 -715.828 -87.8264 0z"
     id="path79-22" /></glyph>
   <glyph
   unicode="e"
   horiz-adv-x="556"
   id="glyph81"><path
     d="M420.837 166.995l90.8264 -11.1614c-14.3267,-53.173 -40.8305,-94.3343 -79.4997,-123.673 -38.8345,-29.1613 -88.3343,-43.8305 -148.499,-43.8305 -75.8265,0 -136.003,23.3385 -180.33,70.0037 -44.5038,46.6652 -66.673,112.169 -66.673,196.499 0,87.3304 22.4999,154.995 67.3344,203.161 44.9998,48.177 103.169,72.3422 174.838,72.3422 69.3304,0 126,-23.6692 169.83,-70.8422 44.0077,-47.1612 65.9997,-113.657 65.9997,-199.157 0,-5.33856 -0.165354,-13.1692 -0.496061,-23.5038l-386.668 0c3.16534,-56.9998 19.3346,-100.665 48.3305,-130.83 29.0078,-30.3424 65.0076,-45.5077 108.342,-45.5077 32.1613,0 59.6572,8.5039 82.4997,25.4999 22.8306,16.8425 40.8305,43.8423 54.1651,80.9997zm-288.507 142.169l289.499 0c-3.82676,43.4998 -14.9999,76.3343 -33.1652,98.0075 -27.992,33.8266 -64.3344,50.8226 -108.826,50.8226 -40.3345,0 -74.3383,-13.4999 -101.834,-40.4998 -27.5078,-26.9999 -42.6731,-63.1651 -45.673,-108.33z"
     id="path83-00" /></glyph>
   <glyph
   unicode="v"
   horiz-adv-x="500"
   id="glyph85"><path
     d="M210 0l-197.336 518.5 92.8377 0 111.332 -310.5c11.9973,-33.4999 22.9978,-68.3328 33.1636,-104.499 7.83605,27.3331 18.6684,60.1664 32.6712,98.6622l115.331 316.336 90.3337 0 -196.334 -518.5 -81.9993 0z"
     id="path87" /></glyph>
   <glyph
   unicode="r"
   horiz-adv-x="332"
   id="glyph89"><path
     d="M64.9958 0l0 518.502 79.0036 0 0 -78.5076c20.1613,36.6731 38.8345,61.0037 55.9958,72.6729 17.0078,11.6692 35.8345,17.6692 56.3384,17.6692 29.6692,0 59.6691,-9.50784 90.3304,-28.3345l-30.3306 -81.6729c-21.3306,12.8385 -42.8384,19.1692 -64.3344,19.1692 -19.3346,0 -36.4959,-5.83462 -51.8266,-17.3267 -15.3425,-11.6692 -26.1731,-27.6731 -32.6692,-48.177 -9.83854,-31.1574 -14.6692,-65.3265 -14.6692,-102.496l0 -271.499 -87.8382 0z"
     id="path91-0" /></glyph>
   <glyph
   unicode="s"
   horiz-adv-x="500"
   id="glyph93"><path
     d="M30.8385 154.83l86.8225 13.6653c4.8425,-34.8306 18.5078,-61.4998 40.8424,-80.1611 22.1692,-18.496 53.3266,-27.8385 93.4957,-27.8385 40.3345,0 70.3344,8.33855 89.8343,24.6731 19.4999,16.4999 29.3385,35.8345 29.3385,57.8265 0,20.0078 -8.66926,35.5038 -26.0078,47.0077 -12,7.83068 -41.9998,17.6692 -89.8343,29.6692 -64.3344,16.3228 -109.169,30.3306 -133.996,42.3305 -24.8385,11.8346 -43.8305,28.3345 -56.6691,49.3345 -12.8267,20.9999 -19.3346,44.1612 -19.3346,69.4958 0,23.1613 5.33856,44.5038 16.0039,64.169 10.5,19.8306 25.0038,36.1652 43.1691,49.1691 13.6653,9.99209 32.3266,18.6613 55.8305,25.6653 23.6692,6.9921 49.0037,10.5 76.0036,10.5 40.6652,0 76.3343,-5.99998 107.161,-17.6692 30.8385,-11.6692 53.5037,-27.496 68.173,-47.5037 14.6574,-20.1613 24.6613,-46.8305 30.1652,-80.3265l-85.8422 -11.8346c-3.99211,26.6692 -15.3306,47.4919 -33.992,62.4919 -18.6732,14.9999 -45.1652,22.4999 -79.3343,22.4999 -40.3345,0 -69.1651,-6.66139 -86.3382,-19.996 -17.3267,-13.3346 -25.996,-28.9959 -25.996,-46.8305 0,-11.5039 3.6614,-21.6731 10.8307,-30.8385 7.16926,-9.49603 18.3306,-17.1613 33.6731,-23.492 8.83461,-3.16534 34.6652,-10.6653 77.6572,-22.3346 62.173,-16.6653 105.507,-30.1652 130.003,-40.8305 24.6731,-10.5 43.9959,-26.0078 58.0037,-46.1691 13.996,-20.1731 20.9999,-45.1652 20.9999,-75.1651 0,-29.3385 -8.66926,-56.8344 -25.6653,-82.8422 -17.1732,-25.8306 -41.8345,-45.8266 -74.0076,-59.9998 -32.1613,-14.1614 -68.6572,-21.1653 -109.334,-21.1653 -67.4997,0 -118.83,14.0078 -154.157,41.9998 -35.3384,28.0038 -57.8384,69.5076 -67.4997,124.5z"
     id="path95-8" /></glyph>
   <glyph
   unicode="u"
   horiz-adv-x="556"
   id="glyph97"><path
     d="M405.837 0l0 76.169c-40.4998,-58.6651 -95.3382,-87.8382 -164.669,-87.8382 -30.4959,0 -59.173,5.83462 -85.665,17.5039 -26.5038,11.6692 -46.1691,26.5038 -59.0076,44.1612 -12.9921,17.8346 -21.992,39.5077 -27.1652,65.173 -3.49605,17.3267 -5.32675,44.6691 -5.32675,82.169l0 321.164 87.8264 0 0 -287.503c0,-46.0038 1.8307,-76.8304 5.33856,-92.8343 5.66927,-23.1613 17.3267,-41.1613 35.1613,-54.4958 17.9999,-13.1692 40.1691,-19.6653 66.5076,-19.6653 26.3267,0 50.9998,6.66139 74.1611,20.1613 23.1731,13.4999 39.4959,31.9959 49.0037,55.1691 9.66138,23.3267 14.4921,57.1651 14.4921,101.338l0 277.83 87.8382 0 0 -518.502 -78.4958 0z"
     id="path99-1" /></glyph>
   <glyph
   unicode="t"
   horiz-adv-x="277"
   id="glyph101"><path
     d="M257.834 78.6611l12.6614 -77.6572c-24.6613,-5.17321 -46.8305,-7.84249 -66.3304,-7.84249 -31.9959,0 -56.6691,5.00785 -74.3265,15.1771 -17.5039,9.99209 -29.8345,23.3267 -37.0038,39.8266 -7.16926,16.3346 -10.8307,50.9998 -10.8307,103.665l0 298.333 -64.4997 0 0 68.3383 64.4997 0 0 128.503 87.4957 52.6651 0 -181.169 88.3343 0 0 -68.3383 -88.3343 0 0 -303.164c0,-25.1692 1.49999,-41.1613 4.49998,-48.3305 3.16534,-7.16926 8.1732,-12.8385 15.1653,-17.1732 7.00391,-4.15746 17.0078,-6.33068 29.9999,-6.33068 9.83854,0 22.6653,1.16929 38.6691,3.49605z"
     id="path103-0" /></glyph>
  </font>
</defs>
</svg>
